Advanced Search
Have a nice Wednesday!
Top Bollywood Movies
Welcome To Sajjanpur (2008) Hindi 720p WEB-DL x264 AC3 5.1 ESub-Sun George / Movie - Bollywood
[18+] SOS chapter 5 2017  HDRip 1080p x264  AAC / Movie - Bollywood
Dil Juunglee (2018) Hindi 720p WEB-HD x264 AC3-Sun George / Movie - Bollywood
The Attacks of 26/11 (2013) Hindi 720p WEB-DL x264 AC3-Sun George / Movie - Bollywood
Robot 2.0 (2018) *Update Print* Desi Pre Rip x264 720p Hindi AC3 / Movie - Bollywood
Footpath (2003) Hindi 720p WEB-DL x264 AC3-Sun George (Requested) / Movie - Bollywood

Top Dubs/Dual Audio Movies
Kariya 2 2017 HDRip x264 720p UNCUT [Hindi + Kannada] 950MB ... nTTo / Movie - Dubs/Dual Audio
Mowgli Legend of The Jungle (2018) WEB-DL x264 720p [Hindi + English] ... nTTo / Movie - Dubs/Dual Audio
The Nun (2018) (Dual Audio) {Hindi 5.1 + English 5.1} 720p BluRay x264 AC3 ESub-Sun George / Movie - Dubs/Dual Audio
Mowgli Legend of the Jungle 2018 720p HDRip x264 [Telugu + Tamil + Hindi + Eng ] AAC { TaRa }.mkv / Movie - Dubs/Dual Audio
Mowgli Legend of The Jungle (2018) WEB-DL x264 720p [ Hindi DD5.1 + English] ... nTTo / Movie - Dubs/Dual Audio
Aatanki Mission (2018) South Dubbed Movie 720p WebHD 1GB / Movie - Dubs/Dual Audio

Top HD Movies
Mowgli.Legend.of.the.Jungle.2018.FRENCH.NF.WEBRip.XviD-EXTREME / Movie - HD
Angel (2018) Hindi Dubbed HDRip 720p x264 AAC 750MiB / Movie - HD
Bhalobashar Mullo Koto   Uncut Bangla ORG Movie 1080p x264 Web-DL / Movie - HD
(18+) A Virgin (2018) Korea 720p WebHD 600MB / Movie - HD
Faraar (2015) Punjabi 720p WEB-DL x264 AC3 5.1 ESub-Sun George (Requested) / Movie - HD
Zodiac Extended AC3 5.1 ITA.ENG 1080p H265 multisub (2007) Sp33dy94-MIRCrew.mkv / Movie - HD

Top TV Shows
21 Sarfarosh Saragarhi 1897 (2018) Hindi Season 01 1 to 30 Episodes 720p WEB-DL x264 AC3-Sun George / Other - TV Shows
21 Sarfarosh Saragarhi 1897 (2018) Hindi Season 01 31 to 65 Episodes 720p WEB-DL x264 AC3-Sun George / Other - TV Shows
Mirzapur (2018) Hindi Season 1 (All Episodes Joined) 720p HDRip x264 AC3 ESub-Sun George / Other - TV Shows


"Mirror Game - Ab Khel Shuru (2017) Hindi 720p WEB-DL x264 AC3 5.1 ESub-Sun George"


Previous Torrent
[BangBros18.com] Vina Sky - Fucking a Bad Boy Cock.MP4
Next Torrent
Muma no Machi Cornelica - 01 [Engsub] / 夢魔の街コルネリカ 第一話 危険がいっぱいコルネリカ~サキュバスたちの楽園~

  
Complete Name :Mirror Game - Ab Khel Shuru (2017) Hindi 720p WEB-DL x264 AC3 5.1 ESub-Sun George
Download torrent:  Mirror Game - Ab Khel Shuru (2017) Hindi 720p WEB-DL x264 AC3 5.1 ESub-Sun George.torrent
Ratings: (Please Log in to rate it)
Info Hash:2f6cfefc81cb36ff49e1e8f7955fd6c8d880af1a
Category:Movie  > Bollywood
Torrent language:Hindi  
Seeds | Leech:126  |  90
Complete: 0
Health:
Total Size:1.53 GB
Downloaded:64 Times
Added By:       sungeorge ... View All Uploads Of This User
Torrent status: Torrent Is Verified (Verified By 220x )
Date Added:01-12-2018 01:58:pm | Last Edit:  03-12-2018 02:24:pm
Main Technical Comments
Mirror Game - Ab Khel Shuru (2017) Hindi 720p WEB-DL x264 AC3 5.1 ESub-Sun George


https://www.imdb.com/title/tt4300776/







===================================================================

General
Format : Matroska
Format version : Version 4 / Version 2
File size : 1.49 GiB
Duration : 1 h 47 min
Overall bit rate : 1 984 kb/s
Movie name : Mirror Game - Ab Khel Shuru (2017) Hindi 720p WEB-DL x264 AC3 5.1 ESub-Sun George

===================================================================

Video
ID : 1
Format : AVC
Format/Info : Advanced Video Codec
Format profile : [email protected]
Format settings : CABAC / 5 Ref Frames
Format settings, CABAC : Yes
Format settings, RefFrames : 5 frames
Codec ID : V_MPEG4/ISO/AVC
Duration : 1 h 47 min
Bit rate : 1 600 kb/s
Width : 1 280 pixels
Height : 720 pixels
Display aspect ratio : 16:9
Frame rate mode : Constant
Frame rate : 24.000 FPS
Color space : YUV
Chroma subsampling : 4:2:0
Bit depth : 8 bits
Scan type : Progressive
Bits/(Pixel*Frame) : 0.072
Stream size : 1.20 GiB (81%)
Title : Sun George

===================================================================

Audio
ID : 2
Format : AC-3
Format/Info : Audio Coding 3
Codec ID : A_AC3
Duration : 1 h 47 min
Bit rate mode : Constant
Bit rate : 384 kb/s
Channel(s) : 6 channels
Channel positions : Front: L C R, Side: L R, LFE
Sampling rate : 48.0 kHz
Frame rate : 31.250 FPS (1536 SPF)
Bit depth : 16 bits
Compression mode : Lossy
Delay relative to video : 23 ms
Stream size : 296 MiB (19%)
Title : Sun George
Language : Hindi
Service kind : Complete Main
Default : Yes
Forced : No

Text
ID : 3
Format : UTF-8
Codec ID : S_TEXT/UTF8
Codec ID/Info : UTF-8 Plain Text
Duration : 1 h 45 min
Bit rate : 67 b/s
Count of elements : 1393
Stream size : 51.7 KiB (0%)
Title : Sun George
Language : English
Default : Yes
Forced : Yes














........................................................................



Trackers:
udp://tracker.pirateparty.gr:6969/announce

Mirror Game - Ab Khel Shuru (2017) Hindi 720p WEB-DL x264 AC3 5.1 ESub-Sun George 
Comments:
No comments still posted
Home   Latest Torrent   Today's Torrents   Upload A Torrent   Top 100   F.A.Q   Site Rules   Contact Us   220xd.site is in compliance with Copyrights   Page Generated In 0.045995 secs.   2018-2019 www.220xd.site