Advanced Search
Have a nice Monday!
Top Bollywood Movies
Uri The Surgical Strike (2019) Pre DVDRip x264 700MiB ~KoMmu / Movie - Bollywood
Why Cheat India 2019 Pre Dvdrip Hindi x264 700MiB / Movie - Bollywood
Uri The Surgical Strike (2019) Pre DVDRip x264 700MiB AAC ~iCanDo / Movie - Bollywood
Baazaar 2018 HDRip x264 720p Hindi DD5.1 ESubtitle 1GB ~KoMmu / Movie - Bollywood
Why Cheat India 2019 Pre Dvdrip Hindi x264 350MB โ˜…ๅฝก ๐Ÿ‡ฐ๐Ÿ‡ด๐Ÿ‡ฒ๐Ÿ‡ฒ๐Ÿ‡บ ๅฝกโ˜… / Movie - Bollywood
Uri The Surgical Strike (2019) Pre DVDRip x264 700MiB AAC ~nTTo / Movie - Bollywood
Purdah (2019) Hindi 720p WEB-DL x264 AC3 2.0 ESub-Sun George / Movie - Bollywood
Budhia Singh: Born to Run (2016) Hindi 720p WEB-DL x264 AC3 5.1 ESub-Sun George (Requested) / Movie - Bollywood

Top Dubs/Dual Audio Movies
Bumblebee (2018) HDRip Hindi (Cleaned) + Dual Audio 720p 850MB / Movie - Dubs/Dual Audio
Dharma Bhai 2019 HDRip Hindi Dubbed (Cleaned) 720p 900MB / Movie - Dubs/Dual Audio
Split (2016) BluRay [Hindi + English] x264 720p ESubs [1GB] ~KoMmu / Movie - Dubs/Dual Audio
Inttelligent 2018 Hindi Dual Audio 720p UnCut HDRip / Movie - Dubs/Dual Audio
Nishaane Pe Humla [2019] Hindi Dubbed Movie 720p HDRip 1GB / Movie - Dubs/Dual Audio
Gajakessari [2019] Hindi Dubbed 720p HDRip 1GB / Movie - Dubs/Dual Audio
Petta (2019) HQ [2CD] Pre-DvD 720p x264 1.2GB / Movie - Dubs/Dual Audio
Mera Intekam (Aatadukundam Raa) [2019] Hindi Dubbed Movie 720p WebHD 700MB / Movie - Dubs/Dual Audio

Top HD Movies
(18+) Tantrica (2018) English HDRip x264 720p **iCanDo / Movie - HD
18+ My Brothers Wife (2018) Korean  HoT Erotic Movie HD 720P x264 AAC / Movie - HD
Blood Bound (2019) Horror Movie 720p Web-DL x264 HD / Movie - HD
The Old Man And The Gun 2018 [ Bolly4u.wiki ] BRRip English 720p 900Mb ESub.mkv / Movie - HD
Hoichoi Unlimited (2018) Bengali Movie 720p HDCAMRip 1GB / Movie - HD
18+ Sagorer Gorjon [2019] Bagla Hot Movie 720p HDRip 1GB / Movie - HD

Top TV Shows
 WWE RAW 14th Jan 2019 WEBRip H.264 ~KoMmu / Other - TV Shows
(18+) Bribe (2018) UntoucheD 720p WEB DL ( UllU Original ) / Other - TV Shows
(18+) Generation Gap (2019) Web Series Hindi HDRip x264 720p 500MiB ~KoMmu / Other - TV Shows
18+ The Investigation (2019) Complete S01 Hindi HDRip 720p x264 850MB / Other - TV Shows
18+ Guardian (2019) Hindi 720p WEB-DL H.264 AAC / Other - TV Shows
[18+] Wanna Have A Good Time 2018 Hindi Complete S01 720p WEB-DL x264 AAC ~KoMmu / Other - TV Shows


"Time Out (2015) Hindi 720p WEB-DL x264 AC3-Sun George (Requested)"


  
Complete Name :Time Out (2015) Hindi 720p WEB-DL x264 AC3-Sun George (Requested)
Download torrent:  Time Out (2015) Hindi 720p WEB-DL x264 AC3-Sun George (Requested).torrent
Ratings: (Please Log in to rate it)
Info Hash:ca5400e9c20b5c7426183225b14d48df9399a09e
Category:Movie  > Bollywood
Torrent language:Hindi  
Seeds | Leech:0  |  0
Complete: 0
Health:
Total Size:1.10 GB
Downloaded:29 Times
Added By:       sungeorge ... View All Uploads Of This User
Torrent status: Torrent Is Verified (Verified By nTTo )
Date Added:05-01-2019 11:34:am | Last Edit:  05-01-2019 11:34:am
Main Technical Comments
Time Out (2015) Hindi 720p WEB-DL x264 AC3-Sun George (Requested)








For Direct Links Visit: http://FilmMaza.Org




https://www.imdb.com/title/tt4396648/










===================================================================

Source : DTOne (Thanks)

General
Format : Matroska
Format version : Version 4 / Version 2
File size : 1.08 GiB
Duration : 1 h 34 min
Overall bit rate : 1 624 kb/s
Movie name : Time Out (2015) Hindi 720p WEB-DL x264 AC3-Sun George (Requested)

===================================================================

Video
ID : 1
Format : AVC
Format/Info : Advanced Video Codec
Format profile : [email protected]
Format settings : CABAC / 4 Ref Frames
Format settings, CABAC : Yes
Format settings, RefFrames : 4 frames
Codec ID : V_MPEG4/ISO/AVC
Duration : 1 h 34 min
Bit rate : 1 398 kb/s
Width : 1 280 pixels
Height : 720 pixels
Display aspect ratio : 16:9
Frame rate mode : Variable
Frame rate : 25.000 FPS
Color space : YUV
Chroma subsampling : 4:2:0
Bit depth : 8 bits
Scan type : Progressive
Bits/(Pixel*Frame) : 0.061
Stream size : 948 MiB (86%)
Title : Sun George

===================================================================

Audio
ID : 2
Format : AC-3
Format/Info : Audio Coding 3
Codec ID : A_AC3
Duration : 1 h 34 min
Bit rate mode : Constant
Bit rate : 224 kb/s
Channel(s) : 2 channels
Channel positions : Front: L R
Sampling rate : 44.1 kHz
Frame rate : 28.711 FPS (1536 SPF)
Bit depth : 16 bits
Compression mode : Lossy
Stream size : 152 MiB (14%)
Title : Sun George
Language : Hindi
Service kind : Complete Main
Default : Yes
Forced : No














........................................................................



Trackers:
udp://tracker.pirateparty.gr:6969/announce

Time Out (2015) Hindi 720p WEB-DL x264 AC3-Sun George (Requested) 
Comments:
No comments still posted
Home   Latest Torrent   Today's Torrents   Upload A Torrent   Top 100   F.A.Q   Site Rules   Contact Us   220xd.site is in compliance with Copyrights   Page Generated In 0.024055 secs.   2018-2019 www.220xd.site