Advanced Search
Have a nice Monday!
Top Bollywood Movies
Uri The Surgical Strike (2019) Pre DVDRip x264 700MiB ~KoMmu / Movie - Bollywood
Why Cheat India 2019 Pre Dvdrip Hindi x264 700MiB / Movie - Bollywood
Uri The Surgical Strike (2019) Pre DVDRip x264 700MiB AAC ~iCanDo / Movie - Bollywood
Baazaar 2018 HDRip x264 720p Hindi DD5.1 ESubtitle 1GB ~KoMmu / Movie - Bollywood
Why Cheat India 2019 Pre Dvdrip Hindi x264 350MB โ˜…ๅฝก ๐Ÿ‡ฐ๐Ÿ‡ด๐Ÿ‡ฒ๐Ÿ‡ฒ๐Ÿ‡บ ๅฝกโ˜… / Movie - Bollywood
Uri The Surgical Strike (2019) Pre DVDRip x264 700MiB AAC ~nTTo / Movie - Bollywood
Purdah (2019) Hindi 720p WEB-DL x264 AC3 2.0 ESub-Sun George / Movie - Bollywood
Budhia Singh: Born to Run (2016) Hindi 720p WEB-DL x264 AC3 5.1 ESub-Sun George (Requested) / Movie - Bollywood

Top Dubs/Dual Audio Movies
Bumblebee (2018) HDRip Hindi (Cleaned) + Dual Audio 720p 850MB / Movie - Dubs/Dual Audio
Dharma Bhai 2019 HDRip Hindi Dubbed (Cleaned) 720p 900MB / Movie - Dubs/Dual Audio
Split (2016) BluRay [Hindi + English] x264 720p ESubs [1GB] ~KoMmu / Movie - Dubs/Dual Audio
Inttelligent 2018 Hindi Dual Audio 720p UnCut HDRip / Movie - Dubs/Dual Audio
Nishaane Pe Humla [2019] Hindi Dubbed Movie 720p HDRip 1GB / Movie - Dubs/Dual Audio
Gajakessari [2019] Hindi Dubbed 720p HDRip 1GB / Movie - Dubs/Dual Audio
Petta (2019) HQ [2CD] Pre-DvD 720p x264 1.2GB / Movie - Dubs/Dual Audio
Mera Intekam (Aatadukundam Raa) [2019] Hindi Dubbed Movie 720p WebHD 700MB / Movie - Dubs/Dual Audio

Top HD Movies
(18+) Tantrica (2018) English HDRip x264 720p **iCanDo / Movie - HD
18+ My Brothers Wife (2018) Korean  HoT Erotic Movie HD 720P x264 AAC / Movie - HD
Blood Bound (2019) Horror Movie 720p Web-DL x264 HD / Movie - HD
Step Mom (2016) [Korean Hot Movie] 720P HD WEB-Rip / Movie - HD
The Old Man And The Gun 2018 [ Bolly4u.wiki ] BRRip English 720p 900Mb ESub.mkv / Movie - HD
Hoichoi Unlimited (2018) Bengali Movie 720p HDCAMRip 1GB / Movie - HD

Top TV Shows
 WWE RAW 14th Jan 2019 WEBRip H.264 ~KoMmu / Other - TV Shows
(18+) Bribe (2018) UntoucheD 720p WEB DL ( UllU Original ) / Other - TV Shows
(18+) Generation Gap (2019) Web Series Hindi HDRip x264 720p 500MiB ~KoMmu / Other - TV Shows
18+ The Investigation (2019) Complete S01 Hindi HDRip 720p x264 850MB / Other - TV Shows
18+ Guardian (2019) Hindi 720p WEB-DL H.264 AAC / Other - TV Shows
[18+] Wanna Have A Good Time 2018 Hindi Complete S01 720p WEB-DL x264 AAC ~KoMmu / Other - TV Shows


"Split (2016) (Dual Audio) 720p BluRay {Hindi AC3 5.1+English AC3 5.1} ESub-Sun George"


  
Complete Name :Split (2016) (Dual Audio) 720p BluRay {Hindi AC3 5.1+English AC3 5.1} ESub-Sun George
Download torrent:  Split (2016) (Dual Audio) 720p BluRay {Hindi AC3 5.1+English AC3 5.1} ESub-Sun George.torrent
Ratings: (Please Log in to rate it)
Info Hash:f41462ca0288a8286165fa02b24ea7bc9666a211
Category:Movie  > Dubs/Dual Audio
Torrent language:Hindi  
Seeds | Leech:0  |  0
Complete: 0
Health:
Total Size:1.24 GB
Downloaded:25 Times
Added By:       sungeorge ... View All Uploads Of This User
Torrent status: Torrent Is Verified (Verified By xWorld )
Date Added:07-01-2019 12:28:pm | Last Edit:  07-01-2019 12:28:pm
Main Technical Comments
Split (2016) (Dual Audio) 720p BluRay {Hindi AC3 5.1 + English AC3 5.1} ESub-Sun George





https://www.imdb.com/title/tt4972582/








For Direct Links Visit: http://FilmMaza.Org













===================================================================

General
Format : Matroska
Format version : Version 4 / Version 2
File size : 1.22 GiB
Duration : 1 h 57 min
Overall bit rate : 1 487 kb/s
Movie name : Split (2016) (Dual Audio) 720p BluRay {Hindi AC3 5.1 + English AC3 5.1} ESub-Sun George

===================================================================

Video
ID : 1
Format : AVC
Format/Info : Advanced Video Codec
Format profile : [email protected]
Format settings : CABAC / 4 Ref Frames
Format settings, CABAC : Yes
Format settings, RefFrames : 4 frames
Codec ID : V_MPEG4/ISO/AVC
Duration : 1 h 57 min
Bit rate : 808 kb/s
Width : 1 280 pixels
Height : 544 pixels
Display aspect ratio : 2.35:1
Frame rate mode : Variable
Frame rate : 23.976 FPS
Color space : YUV
Chroma subsampling : 4:2:0
Bit depth : 8 bits
Scan type : Progressive
Bits/(Pixel*Frame) : 0.048
Stream size : 677 MiB (54%)
Title : Sun George

===================================================================

Audio #1
ID : 2
Format : AC-3
Format/Info : Audio Coding 3
Codec ID : A_AC3
Duration : 1 h 57 min
Bit rate mode : Constant
Bit rate : 448 kb/s
Channel(s) : 6 channels
Channel positions : Front: L C R, Side: L R, LFE
Sampling rate : 48.0 kHz
Frame rate : 31.250 FPS (1536 SPF)
Bit depth : 16 bits
Compression mode : Lossy
Stream size : 376 MiB (30%)
Title : Sun George
Language : Hindi
Service kind : Complete Main
Default : Yes
Forced : No

Audio #2
ID : 3
Format : AC-3
Format/Info : Audio Coding 3
Codec ID : A_AC3
Duration : 1 h 57 min
Bit rate mode : Constant
Bit rate : 224 kb/s
Channel(s) : 6 channels
Channel positions : Front: L C R, Side: L R, LFE
Sampling rate : 48.0 kHz
Frame rate : 31.250 FPS (1536 SPF)
Bit depth : 16 bits
Compression mode : Lossy
Delay relative to video : 20 ms
Stream size : 188 MiB (15%)
Title : Sun George
Language : English
Service kind : Complete Main
Default : No
Forced : No

Text
ID : 4
Format : VobSub
Muxing mode : zlib
Codec ID : S_VOBSUB
Codec ID/Info : Picture based subtitle format used on DVDs
Duration : 1 h 51 min
Bit rate : 9 263 b/s
Count of elements : 1442
Stream size : 7.37 MiB (1%)
Title : Sun George
Language : English
Default : Yes
Forced : Yes

Menu
00:00:00.000 : en:Chapter 01
00:06:08.451 : en:Chapter 02
00:14:19.024 : en:Chapter 03
00:20:49.373 : en:Chapter 04
00:24:14.536 : en:Chapter 05
00:28:37.048 : en:Chapter 06
00:35:47.979 : en:Chapter 07
00:42:35.386 : en:Chapter 08
00:49:06.068 : en:Chapter 09
00:54:09.412 : en:Chapter 10
01:00:24.495 : en:Chapter 11
01:06:22.561 : en:Chapter 12
01:12:31.221 : en:Chapter 13
01:19:35.771 : en:Chapter 14
01:25:25.829 : en:Chapter 15
01:29:16.559 : en:Chapter 16
01:34:08.225 : en:Chapter 17
01:40:45.998 : en:Chapter 18
01:47:40.287 : en:Chapter 19
01:52:26.740 : en:Chapter 20













........................................................................



Trackers:
udp://tracker.pirateparty.gr:6969/announce

Split (2016) (Dual Audio) 720p BluRay {Hindi AC3 5.1+English AC3 5.1} ESub-Sun George 
Comments:
No comments still posted
Home   Latest Torrent   Today's Torrents   Upload A Torrent   Top 100   F.A.Q   Site Rules   Contact Us   220xd.site is in compliance with Copyrights   Page Generated In 0.038008 secs.   2018-2019 www.220xd.site