Advanced Search
Have a nice Monday!
Top Bollywood Movies
Uri The Surgical Strike (2019) Pre DVDRip x264 700MiB ~KoMmu / Movie - Bollywood
Why Cheat India 2019 Pre Dvdrip Hindi x264 700MiB / Movie - Bollywood
Uri The Surgical Strike (2019) Pre DVDRip x264 700MiB AAC ~iCanDo / Movie - Bollywood
Baazaar 2018 HDRip x264 720p Hindi DD5.1 ESubtitle 1GB ~KoMmu / Movie - Bollywood
Why Cheat India 2019 Pre Dvdrip Hindi x264 350MB โ˜…ๅฝก ๐Ÿ‡ฐ๐Ÿ‡ด๐Ÿ‡ฒ๐Ÿ‡ฒ๐Ÿ‡บ ๅฝกโ˜… / Movie - Bollywood
Uri The Surgical Strike (2019) Pre DVDRip x264 700MiB AAC ~nTTo / Movie - Bollywood
Purdah (2019) Hindi 720p WEB-DL x264 AC3 2.0 ESub-Sun George / Movie - Bollywood
Budhia Singh: Born to Run (2016) Hindi 720p WEB-DL x264 AC3 5.1 ESub-Sun George (Requested) / Movie - Bollywood

Top Dubs/Dual Audio Movies
Bumblebee (2018) HDRip Hindi (Cleaned) + Dual Audio 720p 850MB / Movie - Dubs/Dual Audio
Dharma Bhai 2019 HDRip Hindi Dubbed (Cleaned) 720p 900MB / Movie - Dubs/Dual Audio
Split (2016) BluRay [Hindi + English] x264 720p ESubs [1GB] ~KoMmu / Movie - Dubs/Dual Audio
Inttelligent 2018 Hindi Dual Audio 720p UnCut HDRip / Movie - Dubs/Dual Audio
Nishaane Pe Humla [2019] Hindi Dubbed Movie 720p HDRip 1GB / Movie - Dubs/Dual Audio
Gajakessari [2019] Hindi Dubbed 720p HDRip 1GB / Movie - Dubs/Dual Audio
Petta (2019) HQ [2CD] Pre-DvD 720p x264 1.2GB / Movie - Dubs/Dual Audio
Mera Intekam (Aatadukundam Raa) [2019] Hindi Dubbed Movie 720p WebHD 700MB / Movie - Dubs/Dual Audio

Top HD Movies
(18+) Tantrica (2018) English HDRip x264 720p **iCanDo / Movie - HD
18+ My Brothers Wife (2018) Korean  HoT Erotic Movie HD 720P x264 AAC / Movie - HD
Blood Bound (2019) Horror Movie 720p Web-DL x264 HD / Movie - HD
Step Mom (2016) [Korean Hot Movie] 720P HD WEB-Rip / Movie - HD
The Old Man And The Gun 2018 [ Bolly4u.wiki ] BRRip English 720p 900Mb ESub.mkv / Movie - HD
Hoichoi Unlimited (2018) Bengali Movie 720p HDCAMRip 1GB / Movie - HD

Top TV Shows
 WWE RAW 14th Jan 2019 WEBRip H.264 ~KoMmu / Other - TV Shows
(18+) Bribe (2018) UntoucheD 720p WEB DL ( UllU Original ) / Other - TV Shows
(18+) Generation Gap (2019) Web Series Hindi HDRip x264 720p 500MiB ~KoMmu / Other - TV Shows
18+ The Investigation (2019) Complete S01 Hindi HDRip 720p x264 850MB / Other - TV Shows
18+ Guardian (2019) Hindi 720p WEB-DL H.264 AAC / Other - TV Shows
[18+] Wanna Have A Good Time 2018 Hindi Complete S01 720p WEB-DL x264 AAC ~KoMmu / Other - TV Shows


"Afsar (2018) Punjabi 720p WEB-DL x264 AC3 5.1 ESub-Sun George"


  
Complete Name :Afsar (2018) Punjabi 720p WEB-DL x264 AC3 5.1 ESub-Sun George
Download torrent:  Afsar (2018) Punjabi 720p WEB-DL x264 AC3 5.1 ESub-Sun George.torrent
Ratings: (Please Log in to rate it)
Info Hash:ebc058b3a707a25ee10f086ea54cee868db218e8
Category:Movie  > HD
Torrent language:Hindi  
Seeds | Leech:0  |  0
Complete: 0
Health:
Total Size:1.69 GB
Downloaded:23 Times
Added By:       sungeorge ... View All Uploads Of This User
Torrent status: Torrent Is Verified (Verified By nTTo )
Date Added:11-01-2019 10:19:am | Last Edit:  11-01-2019 10:19:am
Main Technical Comments
Afsar (2018) Punjabi 720p WEB-DL x264 AC3 5.1 ESub-Sun George





https://www.imdb.com/title/tt8765700/








For Direct Links Visit: http://FilmMaza.Org













===================================================================

Source : Telly (Thanks)

General
Format : Matroska
Format version : Version 4 / Version 2
File size : 1.66 GiB
Duration : 2 h 6 min
Overall bit rate : 1 878 kb/s
Movie name: Afsar (2018) Punjabi 720p WEB-DL x264 AC3 5.1 ESub-Sun George

===================================================================

Video
ID : 1
Format : AVC
Format/Info : Advanced Video Codec
Format profile : [email protected]
Format settings : CABAC / 4 Ref Frames
Format settings, CABAC : Yes
Format settings, RefFrames : 4 frames
Codec ID : V_MPEG4/ISO/AVC
Duration : 2 h 6 min
Bit rate : 1 500 kb/s
Width : 1 280 pixels
Height : 544 pixels
Display aspect ratio : 2.35:1
Frame rate mode : Variable
Frame rate : 24.000 FPS
Color space : YUV
Chroma subsampling : 4:2:0
Bit depth : 8 bits
Scan type : Progressive
Bits/(Pixel*Frame) : 0.090
Stream size : 1.32 GiB (79%)
Title : Sun George

===================================================================

Audio
ID : 2
Format : AC-3
Format/Info : Audio Coding 3
Codec ID : A_AC3
Duration : 2 h 6 min
Bit rate mode : Constant
Bit rate : 384 kb/s
Channel(s) : 6 channels
Channel positions : Front: L C R, Side: L R, LFE
Sampling rate : 48.0 kHz
Frame rate : 31.250 FPS (1536 SPF)
Bit depth : 16 bits
Compression mode : Lossy
Stream size : 348 MiB (20%)
Title : Punjabi-Sun George
Language : Panjabi
Service kind : Complete Main
Default : Yes
Forced : No

Text
ID : 3
Format : ASS
Codec ID : S_TEXT/ASS
Codec ID/Info : Advanced Sub Station Alpha
Duration : 2 h 4 min
Bit rate : 118 b/s
Count of elements : 2008
Compression mode : Lossless
Stream size : 108 KiB (0%)
Title : Sun George
Writing library : Lavc57.42.100 ssa
Language : English
Default : Yes
Forced : Yes















........................................................................



Trackers:
udp://tracker.pirateparty.gr:6969/announce

Afsar (2018) Punjabi 720p WEB-DL x264 AC3 5.1 ESub-Sun George 
Comments:
No comments still posted
Home   Latest Torrent   Today's Torrents   Upload A Torrent   Top 100   F.A.Q   Site Rules   Contact Us   220xd.site is in compliance with Copyrights   Page Generated In 0.025972 secs.   2018-2019 www.220xd.site